+1 323 268 0395 kmw@caltek.net

LCE Dennis Matthews mailing list archives

FFMPEG1.Exited [tcp @ 05225500 [...]

by
CalTek.Net, Kenneth Wyrick
- 09/07/2020 19:32:35

FFMPEG1.Exited
[tcp @ 05225500] TCP Buffer has been set to 2740224 bytes
[tcp @ 0527a3c0] TCP Buffer has been set to 2740224 bytes
[rtmp @ 05228c40] Ignoring unsupported var reason
[tcp @ 0527a3c0] TCP Buffer has been set to 2740224 bytes
[libx264 @ 05226520] using cpu capabilities: MMX2 SSE2Fast SSSE3 SSE4.2 AVX LZCNT BMI2
[libx264 @ 05226520] profile Constrained Baseline, level 3.1
[libx264 @ 05226520] 264 - core 144 - H.264/MPEG-4 AVC codec - Copyleft 2003-2014 - http://www.videolan.org/x264.html - options: cabac=0 ref=1 deblock=1:0:0 analyse=0x1:0x111 me=hex subme=2 psy=1 psy_rd=1.00:0.00 mixed_ref=0 me_range=16 chroma_me=1 trellis=0 8x8dct=0 cqm=0 deadzone=21,11 fast_pskip=1 chroma_qp_offset=0 threads=4 lookahead_threads=1 sliced_threads=0 nr=0 decimate=1 interlaced=0 bluray_compat=0 constrained_intra=0 bframes=0 weightp=0 keyint=60 keyint_min=6 scenecut=40 intra_refresh=0 rc_lookahead=10 rc=abr mbtree=1 bitrate=1000 ratetol=1.0 qcomp=0.60 qpmin=0 qpmax=69 qpstep=4 vbv_maxrate=1100 vbv_bufsize=1000 nal_hrd=none filler=0 ip_ratio=1.40 aq=1:1.00
Output #0, flv, to 'rtmp://scat296:pantpeg78@scat1.streamingchurch.tv/livecdn247/live':
  Metadata:
    encoder         : Lavf57.2.100
    Stream #0:0: Video: h264 (libx264) ([7][0][0][0] / 0x0007), yuv420p, 854x480, q=-1--1, 1000 kb/s, 29.97 fps, 1k tbn, 29.97 tbc
    Metadata:
      encoder         : Lavc57.3.100 libx264
    Stream #0:1: Audio: aac (libfaac) ([10][0][0][0] / 0x000A), 48000 Hz, stereo, s16, 96 kb/s
    Metadata:
      encoder         : Lavc57.3.100 libfaac
Stream mapping:
  Stream #0:0 -> #0:0 (rawvideo (native) -> h264 (libx264))
  Stream #0:1 -> #0:1 (pcm_s16le (native) -> aac (libfaac))
Press [q] to stop, [?] for help